<?xml version="1.0" standalone="no"?><!DOCTYPE svg PUBLIC "-//W3C//DTD SVG 1.1//EN" "http://www.w3.org/Graphics/SVG/1.1/DTD/svg11.dtd" ><svg xmlns="http://www.w3.org/2000/svg"><metadata>Generated by Glyphter</metadata><defs><font id="Glyphter" horiz-adv-x="0"><font-face units-per-em="1024" ascent="1024" descent="0" font-family="Glyphter" font-weight="normal" /><missing-glyph horiz-adv-x="0" /><glyph unicode="&#x0041;" d="M823.242,371.61C823.242,371.61,1002.565,192.288,1002.565,192.288C1031.812,163.041,1031.812,115.682,1002.565,86.435C973.318,57.188,925.895,57.188,896.648,86.435C896.648,86.435,710.862,272.222,710.862,272.222C657.039,241.374,594.641,223.711,528.148,223.711C453.334,223.711,383.768,246.11,325.722,284.381C324.762,283.293,323.994,282.077,322.97,281.053C322.97,281.053,128.352,86.435,128.352,86.435C99.105,57.188,51.682,57.188,22.435,86.435C-6.812,115.682,-6.812,163.041,22.435,192.288C22.435,192.288,217.117,386.97,217.117,386.97C218.141,387.994,219.357,388.698,220.445,389.658C182.11,447.768,159.775,517.334,159.775,592.084C159.775,795.533,324.698,960.456,528.148,960.456C731.597,960.456,896.52,795.533,896.52,592.084C896.52,509.398,869.257,433.112,823.242,371.61C823.242,371.61,823.242,371.61,823.242,371.61M528.148,351.451C661.071,351.451,768.78,459.16,768.78,592.084C768.78,725.007,661.071,832.78,528.148,832.78C395.224,832.78,287.451,725.007,287.451,592.084C287.451,459.16,395.224,351.451,528.148,351.451C528.148,351.451,528.148,351.451,528.148,351.451" class="icon-Icon-Account"/><glyph unicode="&#x0042;" d="M442.514,250.419C442.514,250.419,10.971,660.019,10.971,660.019C-3.657,674.648,-3.657,703.905,10.971,725.848C10.971,725.848,76.8,791.676,76.8,791.676C91.429,806.305,120.686,806.305,142.629,791.676C142.629,791.676,479.086,477.162,479.086,477.162C493.714,462.533,522.971,462.533,544.914,477.162C544.914,477.162,881.371,791.676,881.371,791.676C896,806.305,925.257,806.305,947.2,791.676C947.2,791.676,1013.029,725.848,1013.029,725.848C1027.657,711.219,1027.657,681.962,1013.029,660.019C1013.029,660.019,581.486,243.105,581.486,243.105C537.6,213.848,479.086,213.848,442.514,250.419C442.514,250.419,442.514,250.419,442.514,250.419" class="icon-Icon-Arrow-Down"/><glyph unicode="&#x0043;" d="M246.429,581.486C246.429,581.486,663.343,1013.029,663.343,1013.029C677.971,1027.657,707.229,1027.657,729.171,1013.029C729.171,1013.029,795,947.2,795,947.2C809.629,932.571,809.629,903.314,795,881.371C795,881.371,480.486,544.914,480.486,544.914C465.857,530.286,465.857,501.029,480.486,479.086C480.486,479.086,795,142.629,795,142.629C809.629,128,809.629,98.743,795,76.8C795,76.8,729.171,10.971,729.171,10.971C714.543,-3.657,685.286,-3.657,663.343,10.971C663.343,10.971,246.429,442.514,246.429,442.514C209.857,486.4,209.857,544.914,246.429,581.486C246.429,581.486,246.429,581.486,246.429,581.486" class="icon-Icon-Arrow-Left"/><glyph unicode="&#x0044;" d="M776.201,446.198C776.201,446.198,363.655,11.55,363.655,11.55C348.921,-3.183,319.453,-3.183,297.353,11.55C297.353,11.55,231.05,77.853,231.05,77.853C216.317,92.586,216.317,122.054,231.05,144.155C231.05,144.155,547.827,483.032,547.827,483.032C562.561,497.766,562.561,527.234,547.827,549.335C547.827,549.335,231.05,880.845,231.05,880.845C216.317,895.579,216.317,925.047,231.05,947.147C231.05,947.147,297.353,1013.45,297.353,1013.45C312.086,1028.183,341.554,1028.183,363.655,1013.45C363.655,1013.45,783.568,578.802,783.568,578.802C813.036,541.968,813.036,483.032,776.201,446.198C776.201,446.198,776.201,446.198,776.201,446.198" class="icon-Icon-Arrow-Right"/><glyph unicode="&#x0045;" d="M578.302,779.568C578.302,779.568,1012.95,359.655,1012.95,359.655C1027.683,344.921,1027.683,315.453,1012.95,293.353C1012.95,293.353,946.647,227.05,946.647,227.05C931.914,212.317,902.446,212.317,880.345,227.05C880.345,227.05,541.468,543.827,541.468,543.827C526.734,558.561,497.266,558.561,475.165,543.827C475.165,543.827,143.655,234.417,143.655,234.417C128.921,219.683,99.453,219.683,77.353,234.417C77.353,234.417,11.05,300.719,11.05,300.719C-3.683,315.453,-3.683,344.921,11.05,367.022C11.05,367.022,445.698,786.935,445.698,786.935C482.532,816.403,541.468,816.403,578.302,779.568C578.302,779.568,578.302,779.568,578.302,779.568" class="icon-Icon-Arrow-Up"/><glyph unicode="&#x0046;" d="M481.707,439.071C673.488,434.61,841.131,315.167,937.606,167.711C946.457,154.253,961.597,146.5,977.323,146.5C981.638,146.5,986.027,147.085,990.269,148.255C1010.31,153.887,1024.281,171.588,1024.5,191.849C1024.5,193.75,1024.5,195.579,1024.5,197.334C1024.5,492.173,782.617,717.307,481.78,724.328C481.78,724.328,481.78,824.241,481.78,824.241C481.78,844.136,470.443,862.422,452.377,871.711C444.331,875.88,435.481,877.928,426.704,877.928C415.732,877.928,404.907,874.71,395.545,868.566C395.545,868.566,21.931,619.441,21.931,619.441C8.546,610.518,0.574,595.743,0.5,579.944C0.427,564.146,8.4,549.371,21.712,540.301C21.712,540.301,395.252,288.031,395.252,288.031C404.688,281.668,415.586,278.45,426.631,278.45C435.408,278.45,444.185,280.498,452.231,284.521C470.297,293.81,481.707,312.168,481.707,332.136C481.707,332.136,481.707,439.071,481.707,439.071C481.707,439.071,481.707,439.071,481.707,439.071" class="icon-Icon-Arrow-Return"/><glyph unicode="&#x0047;" d="M576.064,896C576.064,896,448.064,896,448.064,896C448.064,896,448.064,768,448.064,768C448.064,768,576.064,768,576.064,768C576.064,768,576.064,896,576.064,896C576.064,896,576.064,896,576.064,896M929.728,896C929.728,896,833.728,896,833.728,896C833.728,896,833.728,771.52,833.728,771.52C833.728,771.52,897.856,771.52,897.856,771.52C897.856,771.52,897.856,190.272,897.856,190.272C897.856,190.272,128.256,190.272,128.256,190.272C128.256,190.272,128.256,771.52,128.256,771.52C128.256,771.52,192.384,771.52,192.384,771.52C192.384,771.52,192.384,896,192.384,896C192.384,896,94.336,896,94.336,896C42.24,896,0,851.904,0,799.744C0,799.744,0,158.336,0,158.336C0,106.24,42.24,64,94.336,64C94.336,64,929.728,64,929.728,64C981.824,64,1024,106.24,1024,158.336C1024,158.336,1024,799.744,1024,799.744C1024,851.904,981.824,896,929.728,896C929.728,896,929.728,896,929.728,896M320.064,512C355.392,512,384.064,540.672,384.064,576C384.064,611.392,355.392,640,320.064,640C284.672,640,256.064,611.392,256.064,576C256.064,540.672,284.736,512,320.064,512C320.064,512,320.064,512,320.064,512M512.064,512C547.392,512,576.128,540.672,576.128,576C576.128,611.392,547.392,640,512.064,640C476.736,640,448.064,611.392,448.064,576C448.064,540.672,476.736,512,512.064,512C512.064,512,512.064,512,512.064,512M704.128,512C739.456,512,768.128,540.672,768.128,576C768.128,611.392,739.456,640,704.128,640C668.736,640,640.128,611.392,640.128,576C640.128,540.672,668.8,512,704.128,512C704.128,512,704.128,512,704.128,512M320.064,320C355.392,320,384.064,348.672,384.064,384C384.064,419.392,355.392,448,320.064,448C284.672,448,256.064,419.392,256.064,384C256.064,348.672,284.736,320,320.064,320C320.064,320,320.064,320,320.064,320M512.064,320C547.392,320,576.128,348.672,576.128,384C576.128,419.392,547.392,448,512.064,448C476.736,448,448.064,419.392,448.064,384C448.064,348.672,476.736,320,512.064,320C512.064,320,512.064,320,512.064,320M704.128,320C739.456,320,768.128,348.672,768.128,384C768.128,419.392,739.456,448,704.128,448C668.736,448,640.128,419.392,640.128,384C640.128,348.672,668.8,320,704.128,320C704.128,320,704.128,320,704.128,320M320.064,768C368.064,768,384.064,805.504,384.064,832C384.064,832,384.064,896,384.064,896C384.064,922.496,368.064,960,320.064,960C272.064,960,256.064,922.496,256.064,896C256.064,896,256.064,832,256.064,832C256.064,805.504,272.064,768,320.064,768C320.064,768,320.064,768,320.064,768M704.128,768C752.128,768,768.128,805.504,768.128,832C768.128,832,768.128,896,768.128,896C768.128,922.496,752.128,960,704.128,960C656.128,960,640.128,922.496,640.128,896C640.128,896,640.128,832,640.128,832C640.128,805.504,656.128,768,704.128,768C704.128,768,704.128,768,704.128,768" class="icon-Icon-Calendar"/><glyph unicode="&#x0048;" d="M1012.326,869.522C1020.109,860.562,1024,850.015,1024,837.83C1024,837.83,1024,477.074,1024,477.074C1024,465.81,1020.723,455.826,1014.17,447.122C1007.616,438.418,999.219,433.401,988.979,431.967C988.979,431.967,346.47,346.002,346.47,346.002C346.88,342.726,347.802,337.657,349.235,330.898C350.669,324.089,349.542,329.311,339.712,306.732C339.712,306.732,905.83,306.732,905.83,306.732C916.531,306.732,925.747,302.278,933.53,293.369C941.363,284.409,945.254,273.862,945.254,261.625C945.254,249.439,941.363,238.841,933.53,229.932C925.747,221.023,916.531,216.569,905.83,216.569C905.83,216.569,866.509,216.569,866.509,216.569C866.509,216.569,315.085,216.569,315.085,216.569C315.085,216.569,275.712,216.569,275.712,216.569C265.062,216.569,255.846,221.023,248.013,229.932C240.23,238.841,236.339,249.439,236.339,261.625C236.339,268.23,238.592,277.497,243.098,289.478C247.603,301.458,253.645,315.436,261.222,331.41C268.851,347.385,273.05,356.294,273.869,358.188C273.869,358.188,164.915,882.886,164.915,882.886C164.915,882.886,39.424,882.886,39.424,882.886C28.774,882.886,19.507,887.34,11.725,896.3C3.942,905.209,0,915.807,0,927.993C0,940.178,3.942,950.777,11.725,959.686C19.507,968.594,28.723,973.1,39.424,973.1C39.424,973.1,196.966,973.1,196.966,973.1C203.52,973.1,209.357,971.564,214.477,968.492C219.597,965.471,223.744,961.836,226.765,957.586C229.888,953.388,232.55,947.602,234.803,940.332C237.056,933.062,238.592,926.815,239.411,921.644C240.23,916.473,241.357,909.561,242.79,900.857C244.224,892.204,245.146,886.214,245.555,882.937C245.555,882.937,984.627,882.937,984.627,882.937C995.328,882.937,1004.544,878.431,1012.326,869.522C1012.326,869.522,1012.326,869.522,1012.326,869.522M256,134.034C256,156.818,263.731,176.274,279.091,192.351C294.502,208.479,313.037,216.569,334.797,216.569C356.557,216.569,375.091,208.479,390.502,192.351C405.862,176.274,413.542,156.818,413.542,134.034C413.542,111.199,405.862,91.794,390.502,75.666C375.091,59.538,356.557,51.5,334.797,51.5C313.037,51.5,294.502,59.538,279.091,75.666C263.731,91.794,256,111.199,256,134.034C256,134.034,256,134.034,256,134.034M768,134.034C768,156.818,775.731,176.274,791.091,192.351C806.502,208.479,825.037,216.569,846.797,216.569C868.557,216.569,887.091,208.479,902.502,192.351C917.862,176.274,925.594,156.818,925.594,134.034C925.594,111.199,917.862,91.794,902.502,75.666C887.091,59.538,868.557,51.5,846.797,51.5C825.037,51.5,806.502,59.538,791.091,75.666C775.731,91.794,768,111.199,768,134.034C768,134.034,768,134.034,768,134.034" class="icon-Icon-Cart"/><glyph unicode="&#x0049;" d="M985.71,876.831C934.656,927.153,851.931,927.153,800.878,876.831C800.878,876.831,338.688,421.15,338.688,421.15C338.688,421.15,223.122,535.106,223.122,535.106C172.069,585.429,89.344,585.429,38.29,535.106C-12.763,484.711,-12.763,403.157,38.29,352.834C38.29,352.834,246.235,147.742,246.235,147.742C297.289,97.419,380.087,97.419,431.141,147.742C431.141,147.742,985.71,694.559,985.71,694.559C1036.763,744.881,1036.763,826.508,985.71,876.831C985.71,876.831,985.71,876.831,985.71,876.831" class="icon-Icon-Checkmark"/><glyph unicode="&#x004a;" d="M605.091,985.96C605.091,985.96,983.46,607.591,983.46,607.591C1037.513,553.538,1037.513,469.456,983.46,421.409C983.46,421.409,605.091,43.04,605.091,43.04C551.038,-11.013,466.956,-11.013,418.909,43.04C418.909,43.04,40.54,421.409,40.54,421.409C-13.513,475.462,-13.513,559.544,40.54,607.591C40.54,607.591,418.909,985.96,418.909,985.96C418.909,985.96,418.909,985.96,418.909,985.96C466.956,1034.007,551.038,1034.007,605.091,985.96C605.091,985.96,605.091,985.96,605.091,985.96C605.091,985.96,605.091,985.96,605.091,985.96M677.161,643.626C677.161,649.632,671.155,661.644,665.15,667.65C659.144,673.655,647.132,679.661,635.12,679.661C635.12,679.661,460.95,679.661,460.95,679.661C442.933,679.661,424.915,661.644,424.915,643.626C424.915,625.609,442.933,607.591,466.956,607.591C466.956,607.591,539.026,607.591,539.026,607.591C539.026,607.591,418.909,499.485,418.909,499.485C412.903,493.479,406.897,487.474,406.897,481.468C406.897,481.468,406.897,481.468,406.897,481.468C406.897,481.468,406.897,295.286,406.897,295.286C406.897,283.274,418.909,277.268,430.921,277.268C430.921,277.268,466.956,277.268,466.956,277.268C478.968,277.268,490.979,283.274,490.979,295.286C490.979,295.286,490.979,457.444,490.979,457.444C490.979,463.45,490.979,469.456,496.985,475.462C496.985,475.462,593.079,565.55,593.079,565.55C593.079,565.55,593.079,499.485,593.079,499.485C593.079,481.468,611.097,463.45,635.12,463.45C659.144,463.45,677.161,481.468,677.161,499.485C677.161,499.485,677.161,643.626,677.161,643.626C677.161,643.626,677.161,643.626,677.161,643.626C677.161,643.626,677.161,643.626,677.161,643.626" class="icon-Icon-Directions"/><glyph unicode="&#x004b;" d="M928.402,914.571C981.065,914.571,1024,865.054,1024,804.199C1024,804.199,1024,220.373,1024,220.373C1024,159.518,981.065,110,928.402,110C928.402,110,95.525,110,95.525,110C42.862,110,0,159.518,0,220.373C0,220.373,0,804.199,0,804.199C0,865.054,42.862,914.571,95.525,914.571C95.525,914.571,928.402,914.571,928.402,914.571C928.402,914.571,928.402,914.571,928.402,914.571M827.392,760.606C827.392,760.606,512,475.202,512,475.202C512,475.202,196.608,760.606,196.608,760.606C184.027,771.943,164.864,770.699,153.819,757.826C142.775,744.953,143.945,725.278,156.526,713.867C156.526,713.867,491.959,410.398,491.959,410.398C497.737,405.205,504.832,402.645,512,402.645C519.168,402.645,526.336,405.205,532.041,410.398C532.041,410.398,867.401,713.941,867.401,713.941C879.982,725.278,881.225,744.953,870.107,757.826C859.063,770.699,839.899,771.943,827.392,760.606C827.392,760.606,827.392,760.606,827.392,760.606" class="icon-Icon-Email"/><glyph unicode="&#x004c;" d="M982.174,824.675C940.347,824.675,898.599,824.675,856.773,824.675C856.773,863.587,856.773,902.578,856.773,941.49C856.773,965.357,838.105,984.734,815.025,984.734C612.982,984.734,410.939,984.734,208.975,984.734C185.895,984.734,167.148,965.357,167.148,941.49C167.148,902.578,167.148,863.587,167.148,824.675C125.322,824.675,83.574,824.675,41.748,824.675C18.668,824.675,0,805.298,0,781.431C0,640.119,0,498.807,0,357.495C0,333.549,18.668,314.172,41.748,314.172C83.574,314.172,125.322,314.172,167.148,314.172C167.148,263.13,167.148,212.008,167.148,160.966C167.148,136.075,167.148,111.105,167.148,86.214C167.148,71.799,169.984,61.008,180.775,50.846C185.738,46.12,191.094,43.048,197.632,41.079C203.697,39.346,209.684,39.504,215.828,39.504C314.526,39.504,413.223,39.504,512,39.504C610.698,39.504,709.396,39.504,808.094,39.504C814.238,39.504,820.224,39.346,826.289,41.158C832.827,43.048,838.183,46.12,843.225,50.846C854.016,61.086,856.773,71.878,856.773,86.293C856.773,111.184,856.773,136.154,856.773,161.045C856.773,212.087,856.773,263.13,856.773,314.172C898.599,314.172,940.347,314.172,982.174,314.172C1005.253,314.172,1024,333.549,1024,357.495C1024,498.807,1024,640.119,1024,781.431C1024,805.298,1005.253,824.675,982.174,824.675C982.174,824.675,982.174,824.675,982.174,824.675M104.448,672.178C84.283,672.178,67.899,689.114,67.899,710.066C67.899,730.94,84.283,747.875,104.448,747.875C124.692,747.875,140.997,730.94,140.997,710.066C140.997,689.114,124.692,672.178,104.448,672.178C104.448,672.178,104.448,672.178,104.448,672.178M815.025,82.748C815.025,82.748,208.975,82.748,208.975,82.748C208.975,82.748,208.975,424.528,208.975,424.528C208.975,424.528,815.025,424.528,815.025,424.528C815.025,424.528,815.025,82.748,815.025,82.748C815.025,82.748,815.025,82.748,815.025,82.748M815.025,824.675C612.982,824.675,410.939,824.675,208.975,824.675C208.975,849.173,208.975,873.67,208.975,898.246C208.975,922.113,227.643,941.49,250.722,941.49C424.881,941.49,599.04,941.49,773.199,941.49C796.278,941.49,815.025,922.113,815.025,898.246C815.025,873.67,815.025,849.173,815.025,824.675C815.025,824.675,815.025,824.675,815.025,824.675" class="icon-Icon-Fax"/><glyph unicode="&#x004d;" d="M819.2,512.367C887.467,512.367,887.467,459.46,887.467,444.1C887.467,444.1,887.467,63.923,887.467,63.923C887.467,48.563,868.693,34.5,853.333,34.5C853.333,34.5,580.267,34.5,580.267,34.5C565.658,34.5,547.226,47.471,546.133,61.807C546.065,62.216,546.065,152.601,546.133,332.894C546.133,378.837,546.133,409.967,512,409.967C477.867,409.967,477.867,378.837,477.867,332.894C477.935,152.601,477.935,62.216,477.867,61.738C476.774,47.471,458.342,34.5,443.733,34.5C443.733,34.5,170.667,34.5,170.667,34.5C155.307,34.5,136.533,48.563,136.533,63.923C136.533,63.923,136.533,444.1,136.533,444.1C136.533,459.46,136.533,512.367,204.8,512.367C273.067,512.367,273.067,459.46,273.067,444.1C273.067,444.1,273.067,171.033,273.067,171.033C273.067,171.033,341.333,171.033,341.333,171.033C341.333,171.033,341.333,375.833,341.333,375.833C341.333,409.967,375.467,512.367,512,512.367C648.533,512.367,682.667,409.967,682.667,375.833C682.667,375.833,682.667,171.033,682.667,171.033C682.667,171.033,750.933,171.033,750.933,171.033C750.933,171.033,750.933,444.1,750.933,444.1C750.933,459.46,750.933,512.367,819.2,512.367C819.2,512.367,819.2,512.367,819.2,512.367M989.867,599.407C1002.223,589.167,1024,560.904,1024,522.402C1024,483.968,955.733,445.465,955.733,445.465C955.733,445.465,807.799,573.738,512,830.285C224.393,580.565,76.527,452.292,68.267,445.465C55.91,435.294,0,483.968,0,522.402C0,560.904,21.777,589.167,34.133,599.407C34.133,599.407,477.867,984.158,477.867,984.158C487.629,992.281,536.371,992.281,546.133,984.158C546.133,984.158,989.867,599.407,989.867,599.407C989.867,599.407,989.867,599.407,989.867,599.407" class="icon-Icon-Home"/><glyph unicode="&#x004e;" d="M509.737,451.289C509.737,451.289,502.948,444.5,502.948,444.5C502.948,444.5,410.166,535.019,410.166,535.019C396.588,548.597,373.958,548.597,360.38,535.019C360.38,535.019,267.598,444.5,267.598,444.5C267.598,444.5,260.809,451.289,260.809,451.289C260.809,451.289,254.02,444.5,254.02,444.5C254.02,444.5,161.238,535.019,161.238,535.019C147.66,548.597,125.03,548.597,111.452,535.019C111.452,535.019,18.67,444.5,18.67,444.5C18.67,444.5,5.092,458.078,5.092,458.078C-1.697,464.867,-1.697,476.182,5.092,480.708C5.092,480.708,84.296,559.912,84.296,559.912C111.452,587.068,156.712,587.068,186.13,559.912C186.13,559.912,260.809,487.497,260.809,487.497C260.809,487.497,335.487,559.912,335.487,559.912C362.643,587.068,407.903,587.068,437.322,559.912C437.322,559.912,512,487.497,512,487.497C512,487.497,586.678,559.912,586.678,559.912C613.834,587.068,659.094,587.068,688.513,559.912C688.513,559.912,763.191,487.497,763.191,487.497C763.191,487.497,837.87,559.912,837.87,559.912C865.025,587.068,910.285,587.068,939.704,559.912C939.704,559.912,1018.908,480.708,1018.908,480.708C1025.697,473.919,1025.697,462.604,1018.908,458.078C1018.908,458.078,1005.33,444.5,1005.33,444.5C1005.33,444.5,912.548,535.019,912.548,535.019C898.97,548.597,876.34,548.597,862.762,535.019C862.762,535.019,769.98,444.5,769.98,444.5C769.98,444.5,763.191,451.289,763.191,451.289C763.191,451.289,756.402,444.5,756.402,444.5C756.402,444.5,663.62,535.019,663.62,535.019C650.042,548.597,627.412,548.597,613.834,535.019C613.834,535.019,521.052,444.5,521.052,444.5C521.052,444.5,509.737,451.289,509.737,451.289C509.737,451.289,509.737,451.289,509.737,451.289M509.737,451.289C509.737,451.289,502.948,444.5,502.948,444.5C502.948,444.5,410.166,535.019,410.166,535.019C396.588,548.597,373.958,548.597,360.38,535.019C360.38,535.019,267.598,444.5,267.598,444.5C267.598,444.5,260.809,451.289,260.809,451.289C260.809,451.289,254.02,444.5,254.02,444.5C254.02,444.5,161.238,535.019,161.238,535.019C147.66,548.597,125.03,548.597,111.452,535.019C111.452,535.019,18.67,444.5,18.67,444.5C18.67,444.5,5.092,458.078,5.092,458.078C-1.697,464.867,-1.697,476.182,5.092,480.708C5.092,480.708,84.296,559.912,84.296,559.912C111.452,587.068,156.712,587.068,186.13,559.912C186.13,559.912,260.809,487.497,260.809,487.497C260.809,487.497,335.487,559.912,335.487,559.912C362.643,587.068,407.903,587.068,437.322,559.912C437.322,559.912,512,487.497,512,487.497C512,487.497,586.678,559.912,586.678,559.912C613.834,587.068,659.094,587.068,688.513,559.912C688.513,559.912,763.191,487.497,763.191,487.497C763.191,487.497,837.87,559.912,837.87,559.912C865.025,587.068,910.285,587.068,939.704,559.912C939.704,559.912,1018.908,480.708,1018.908,480.708C1025.697,473.919,1025.697,462.604,1018.908,458.078C1018.908,458.078,1005.33,444.5,1005.33,444.5C1005.33,444.5,912.548,535.019,912.548,535.019C898.97,548.597,876.34,548.597,862.762,535.019C862.762,535.019,769.98,444.5,769.98,444.5C769.98,444.5,763.191,451.289,763.191,451.289C763.191,451.289,756.402,444.5,756.402,444.5C756.402,444.5,663.62,535.019,663.62,535.019C650.042,548.597,627.412,548.597,613.834,535.019C613.834,535.019,521.052,444.5,521.052,444.5C521.052,444.5,509.737,451.289,509.737,451.289C509.737,451.289,509.737,451.289,509.737,451.289" class="icon-Icon-Line-Wave"/><glyph unicode="&#x004f;" d="M1024,512C1024,512,1024,512,1024,512C1024,473.6,998.4,448,960,448C960,448,64,448,64,448C25.6,448,0,473.6,0,512C0,512,0,512,0,512C0,550.4,25.6,576,64,576C64,576,960,576,960,576C998.4,576,1024,550.4,1024,512C1024,512,1024,512,1024,512" class="icon-Icon-Minus"/><glyph unicode="&#x0050;" d="M576,576C576,576,576,960,576,960C576,960,576,960,576,960C576,995.328,547.328,1024,512,1024C476.672,1024,448,995.328,448,960C448,960,448,960,448,960C448,960,448,576,448,576C448,576,64,576,64,576C64,576,64,576,64,576C28.672,576,0,547.328,0,512C0,476.672,28.672,448,64,448C64,448,448,448,448,448C448,448,448,64,448,64C448,64,448,64,448,64C448,28.672,476.672,0,512,0C547.328,0,576,28.672,576,64C576,64,576,448,576,448C576,448,960,448,960,448C995.328,448,1024,476.672,1024,512C1024,547.328,995.328,576,960,576C960,576,576,576,576,576C576,576,576,576,576,576" class="icon-Icon-Plus"/><glyph unicode="&#x0051;" d="M419.276,540.016C451.528,494.325,481.092,448.635,510.656,402.945C540.22,448.635,569.785,494.325,602.037,540.016C572.472,591.081,542.908,639.459,510.656,690.525C478.404,639.459,448.84,591.081,419.276,540.016C419.276,540.016,419.276,540.016,419.276,540.016M295.643,365.318C322.52,424.446,352.084,480.887,381.648,537.328C354.772,572.268,330.583,604.52,303.706,639.459C252.64,545.391,206.95,448.635,166.635,349.192C209.638,354.567,252.64,359.942,295.643,365.318C295.643,365.318,295.643,365.318,295.643,365.318M717.606,639.459C690.73,607.207,663.853,572.268,639.664,537.328C669.228,480.887,698.793,421.759,725.669,365.318C768.672,359.942,811.675,354.567,854.677,349.192C814.362,448.635,768.672,545.391,717.606,639.459C717.606,639.459,717.606,639.459,717.606,639.459M518.719,357.255C516.031,351.879,507.969,351.879,502.593,357.255C470.341,408.32,438.089,459.386,403.15,507.764C373.585,451.323,344.021,397.57,317.144,338.441C314.457,335.753,311.769,333.066,309.081,333.066C252.64,327.69,198.887,319.627,145.134,311.564C99.444,303.501,51.066,292.751,5.375,282C2.688,290.063,2.688,295.438,0,303.501C0,308.877,2.688,314.252,8.063,314.252C48.378,325.003,91.381,333.066,131.696,341.129C177.386,459.386,228.451,572.268,290.268,682.462C292.955,687.837,303.706,690.525,309.081,685.15C341.333,647.522,370.898,607.207,400.462,569.58C432.714,626.021,467.654,682.462,502.593,738.903C507.969,744.278,516.031,744.278,521.407,738.903C556.346,682.462,591.286,628.709,623.538,569.58C653.102,609.895,682.667,647.522,714.919,685.15C720.294,690.525,728.357,690.525,733.732,682.462C792.861,572.268,846.614,459.386,892.304,341.129C935.307,333.066,975.622,325.003,1015.937,314.252C1021.312,314.252,1024,308.877,1024,303.501C1021.312,295.438,1021.312,290.063,1018.625,282C972.934,292.751,924.556,303.501,878.866,311.564C825.113,319.627,768.672,327.69,714.919,333.066C712.231,333.066,709.543,335.753,706.856,338.441C679.979,394.882,653.102,451.323,623.538,507.764C583.223,459.386,550.971,408.32,518.719,357.255C518.719,357.255,518.719,357.255,518.719,357.255" class="icon-Icon-ML-Logo"/><glyph unicode="&#x0052;" d="M1001.553,214.544C1001.553,214.544,843.428,373.095,843.428,373.095C811.94,404.498,759.715,403.559,727.117,370.876C727.117,370.876,647.5,291.003,647.5,291.003C642.466,293.819,637.26,296.721,631.799,299.793C581.452,327.782,512.587,366.012,440.138,438.717C367.433,511.507,329.203,580.713,301.214,631.146C298.312,636.437,295.496,641.642,292.68,646.506C292.68,646.506,346.1,700.011,346.1,700.011C346.1,700.011,372.468,726.379,372.468,726.379C405.066,759.147,406.004,811.457,374.516,842.946C374.516,842.946,216.391,1001.497,216.391,1001.497C184.988,1032.985,132.764,1032.047,100.166,999.278C100.166,999.278,55.536,954.392,55.536,954.392C55.536,954.392,56.816,953.112,56.816,953.112C41.883,934.083,29.339,911.981,20.037,888.258C11.504,865.559,6.128,843.97,3.738,822.38C-17.169,648.895,61.936,490.259,276.637,275.131C573.43,-22.344,812.537,0.184,822.863,1.293C845.391,3.939,866.895,9.315,888.741,17.848C912.293,27.064,934.224,39.523,953.339,54.542C953.339,54.542,954.277,53.603,954.277,53.603C954.277,53.603,999.419,97.977,999.419,97.977C1032.017,130.66,1032.956,182.97,1001.553,214.544C1001.553,214.544,1001.553,214.544,1001.553,214.544" class="icon-Icon-Phone"/><glyph unicode="&#x0053;" d="M722.599,287.754C722.599,287.754,869.548,505.288,869.548,505.288C899.757,557.294,914.605,611.714,914.605,668.695C914.605,764.515,872.035,854.411,794.793,921.704C717.552,988.998,620.853,1025.351,512.306,1023.962C406.83,1022.718,301.867,985.268,227.039,918.632C152.211,851.997,110.665,764.003,110.006,670.816C109.641,613.909,124.855,557.221,154.04,506.897C154.259,506.531,203.559,433.532,302.013,287.754C302.013,287.754,499.359,2.414,499.359,2.414C507.624,-0.805,517.06,-0.805,525.326,2.414C525.326,2.414,722.599,287.754,722.599,287.754C722.599,287.754,722.599,287.754,722.599,287.754M283.946,557.733C265.367,590.941,256.078,626.856,256.297,664.525C257.102,790.409,370.331,894.275,508.649,895.957C577.771,896.835,642.943,873.063,692.097,828.956C741.251,784.849,768.314,725.894,768.314,663.136C768.314,625.978,759.025,590.502,740.666,557.733C740.666,557.733,533.006,241.087,533.006,241.087C526.715,231.432,516.402,230.408,512.306,230.408C508.21,230.408,497.896,231.432,491.606,241.087C491.606,241.087,283.946,557.733,283.946,557.733C283.946,557.733,283.946,557.733,283.946,557.733M512.306,731.453C461.909,731.453,420.874,685.518,420.874,636.876C420.874,588.162,461.909,548.59,512.306,548.59C562.703,548.59,603.737,588.162,603.737,636.876C603.737,685.518,562.703,731.453,512.306,731.453C512.306,731.453,512.306,731.453,512.306,731.453" class="icon-Icon-Pin-Outline"/><glyph unicode="&#x0054;" d="M786.114,921.425C712.318,989.071,611.873,1025.969,507.329,1023.919C404.835,1021.869,308.49,984.971,236.744,919.375C164.998,851.728,124,763.583,124,671.338C124,613.941,138.349,558.594,167.048,507.347C167.048,507.347,214.195,433.551,310.54,288.009C310.54,288.009,501.179,3.075,501.179,3.075C509.379,-1.025,517.578,-1.025,525.778,3.075C525.778,3.075,716.418,288.009,716.418,288.009C716.418,288.009,857.86,505.297,857.86,505.297C886.558,556.545,900.907,611.891,900.907,669.288C902.957,763.583,861.96,853.778,786.114,921.425C786.114,921.425,786.114,921.425,786.114,921.425M513.479,572.944C468.381,572.944,431.483,609.842,431.483,654.939C431.483,700.037,468.381,736.935,513.479,736.935C558.576,736.935,595.474,700.037,595.474,654.939C595.474,609.842,558.576,572.944,513.479,572.944C513.479,572.944,513.479,572.944,513.479,572.944" class="icon-Icon-Pin-Solid"/><glyph unicode="&#x0055;" d="M915.307,906.953C915.307,906.953,941.05,866.908,941.05,866.908C763.709,750.594,675.039,634.26,675.039,517.947C675.039,458.84,700.782,424.516,752.268,414.975C752.268,414.975,872.402,526.528,872.402,526.528C910.547,513.187,945.341,488.874,976.804,453.589C1008.268,418.305,1024,373.03,1024,317.723C1024,262.417,1002.078,215.221,958.212,176.137C914.347,137.052,856.67,117.5,785.162,117.5C713.654,117.5,654.547,141.813,607.821,190.439C561.096,239.064,537.743,306.282,537.743,392.092C537.743,578.974,663.598,750.594,915.307,906.953C915.307,906.953,915.307,906.953,915.307,906.953M377.564,906.953C377.564,906.953,403.307,866.908,403.307,866.908C225.966,750.594,137.296,634.26,137.296,517.947C137.296,458.84,163.039,424.516,214.525,414.975C214.525,414.975,334.659,526.528,334.659,526.528C372.804,513.187,407.598,488.874,439.061,453.589C470.525,418.305,486.257,373.03,486.257,317.723C486.257,262.417,464.335,215.221,420.469,176.137C376.604,137.052,318.927,117.5,247.419,117.5C175.911,117.5,116.804,141.813,70.078,190.439C23.353,239.064,0,306.282,0,392.092C0,578.974,125.855,750.594,377.564,906.953C377.564,906.953,377.564,906.953,377.564,906.953" class="icon-Icon-Quote"/><glyph unicode="&#x0056;" d="M25.57,146.066C25.57,146.066,247.997,368.494,247.997,368.494C249.241,369.737,250.63,370.542,251.801,371.639C208.061,438.053,182.534,517.486,182.534,602.99C182.534,835.511,371.023,1024,603.545,1024C835.993,1024,1024.482,835.511,1024.482,602.99C1024.482,370.469,835.993,181.979,603.545,181.979C518.041,181.979,438.534,207.506,372.194,251.319C371.023,250.075,370.219,248.686,369.049,247.515C369.049,247.515,146.621,25.015,146.621,25.015C113.195,-8.338,58.996,-8.338,25.57,25.015C-7.857,58.441,-7.857,112.64,25.57,146.066C25.57,146.066,25.57,146.066,25.57,146.066M603.545,327.973C755.389,327.973,878.562,451.072,878.562,602.99C878.562,754.907,755.389,878.08,603.545,878.08C451.627,878.08,328.454,754.907,328.454,602.99C328.454,451.072,451.627,327.973,603.545,327.973C603.545,327.973,603.545,327.973,603.545,327.973" class="icon-Icon-Search"/><glyph unicode="&#x0057;" d="M597.266,0C597.266,0,597.266,467.115,597.266,467.115C597.266,467.115,764.974,467.115,764.974,467.115C764.974,467.115,790.119,649.102,790.119,649.102C790.119,649.102,597.266,649.102,597.266,649.102C597.266,649.102,597.266,765.326,597.266,765.326C597.266,818.062,612.91,853.959,693.749,853.959C693.749,853.959,796.889,854.016,796.889,854.016C796.889,854.016,796.889,1016.832,796.889,1016.832C779.083,1019.051,717.87,1024,646.645,1024C497.938,1024,396.164,939.179,396.164,783.36C396.164,783.36,396.164,649.102,396.164,649.102C396.164,649.102,228,649.102,228,649.102C228,649.102,228,467.115,228,467.115C228,467.115,396.164,467.115,396.164,467.115C396.164,467.115,396.164,0,396.164,0C396.164,0,597.266,0,597.266,0C597.266,0,597.266,0,597.266,0" class="icon-Icon-Social-Facebook"/><glyph unicode="&#x0058;" d="M359.282,444.491C347.169,444.491,337.315,454.304,337.315,466.458C337.315,466.458,337.315,546.894,337.315,546.894C337.315,559.007,347.169,568.82,359.282,568.82C359.282,568.82,655.077,568.82,655.077,568.82C655.077,568.82,654.913,495.816,654.666,493.64C645.099,321.312,502.334,184.5,327.624,184.5C145.893,184.5,-1.224,332.398,0.008,514.416C1.281,695.039,153.531,843.142,334.112,839.61C418.818,837.968,495.6,804.135,552.838,749.936C561.994,741.231,561.953,726.655,552.797,717.991C552.797,717.991,494.04,662.683,494.04,662.683C485.623,654.759,472.607,654.8,464.066,662.56C427.934,695.326,380.058,715.322,327.624,715.322C212.862,715.322,120.026,619.735,124.501,504.028C128.73,396.04,218.036,309.609,326.105,308.829C415.123,308.172,491.166,365.081,519.251,444.491C519.251,444.491,359.282,444.491,359.282,444.491C359.282,444.491,359.282,444.491,359.282,444.491M926.154,561.553C926.154,561.553,1004.743,561.553,1004.743,561.553C1015.377,561.553,1024,552.93,1024,542.296C1024,542.296,1024,476.148,1024,476.148C1024,465.514,1015.377,456.891,1004.743,456.891C1004.743,456.891,926.154,456.891,926.154,456.891C926.154,456.891,926.154,378.303,926.154,378.303C926.154,367.668,917.532,359.087,906.938,359.087C906.938,359.087,840.75,359.087,840.75,359.087C830.156,359.087,821.534,367.668,821.534,378.303C821.534,378.303,821.534,456.891,821.534,456.891C821.534,456.891,742.945,456.891,742.945,456.891C732.311,456.891,723.688,465.514,723.688,476.148C723.688,476.148,723.688,542.296,723.688,542.296C723.688,552.93,732.311,561.553,742.945,561.553C742.945,561.553,821.534,561.553,821.534,561.553C821.534,561.553,821.534,640.141,821.534,640.141C821.534,650.735,830.156,659.357,840.75,659.357C840.75,659.357,906.938,659.357,906.938,659.357C917.532,659.357,926.154,650.735,926.154,640.141C926.154,640.141,926.154,561.553,926.154,561.553C926.154,561.553,926.154,561.553,926.154,561.553" class="icon-Icon-Social-GooglePlus"/><glyph unicode="&#x0059;" d="M791.364,724.207C921.777,724.207,1024,619.394,1024,485.627C1024,485.627,1024,51.604,1024,51.604C1024,34.949,1007.051,18,990.455,18C990.455,18,822.731,18,822.731,18C806.135,18,789.186,34.949,789.186,51.604C789.186,51.604,789.186,412.299,789.186,412.299C789.186,443.137,781.712,465.617,766.352,480.977C747.814,499.633,722.979,509.991,696.732,509.402C645.12,508.814,604.69,465.559,604.69,410.828C604.69,410.828,604.69,48.367,604.69,48.367C604.69,30.535,587.034,18.059,571.145,18.059C571.145,18.059,386.648,18.118,386.648,18.118C370.759,18.177,353.103,30.594,353.103,48.426C353.103,48.426,353.103,675.832,353.103,675.832C353.103,693.605,371.112,707.376,386.648,707.376C386.648,707.376,554.372,707.376,554.372,707.376C570.968,707.376,587.917,690.427,587.917,673.772C587.917,673.772,587.917,650.467,587.917,650.467C628.406,696.371,690.906,724.207,755.994,724.207C755.994,724.207,791.364,724.207,791.364,724.207C791.364,724.207,791.364,724.207,791.364,724.207M194.207,724.207C222.926,724.207,247.172,700.549,247.172,672.536C247.172,672.536,247.172,68.494,247.172,68.494C247.172,41.128,222.926,18,194.207,18C194.207,18,52.966,18,52.966,18C24.246,18,0,41.599,0,69.553C0,69.553,0,672.418,0,672.418C0,700.961,23.069,724.207,51.435,724.207C51.435,724.207,194.207,724.207,194.207,724.207C194.207,724.207,194.207,724.207,194.207,724.207M124.351,1006.69C157.131,1006.631,188.028,993.743,211.45,970.261C234.814,946.78,247.702,915.707,247.643,882.809C247.584,849.147,234.284,817.72,210.273,794.357C187.439,772.111,156.837,759.517,125.94,759.517C125.057,759.517,124.175,759.517,123.233,759.576C92.395,758.811,60.616,771.64,37.311,794.474C13.241,818.074,0,849.617,0,883.221C0,916.177,13.006,947.192,36.546,970.555C60.086,993.86,91.218,1006.69,124.234,1006.69C124.234,1006.69,124.351,1006.69,124.351,1006.69C124.351,1006.69,124.351,1006.69,124.351,1006.69" class="icon-Icon-Social-Linkedin"/><glyph unicode="&#x005a;" d="M862.268,866.632C824.019,907.953,769.446,933.794,708.969,933.794C593.016,933.794,498.929,838.502,498.929,720.923C498.929,704.237,500.736,688.034,504.35,672.433C329.728,681.348,174.984,765.979,71.319,894.942C53.188,863.379,42.888,826.756,42.888,787.784C42.888,713.996,79.932,648.821,136.312,610.632C101.918,611.656,69.512,621.354,41.141,637.135C41.141,637.135,41.141,634.545,41.141,634.545C41.141,531.362,113.544,445.286,209.739,425.83C192.09,420.83,173.538,418.3,154.383,418.3C140.83,418.3,127.639,419.626,114.808,422.095C141.553,337.525,219.076,275.964,311.055,274.338C239.194,217.175,148.54,183.142,50.116,183.142C33.19,183.142,16.444,184.106,0,186.093C93.003,125.738,203.475,90.5,322.078,90.5C708.548,90.5,919.793,414.867,919.793,696.166C919.793,705.442,919.612,714.718,919.251,723.754C960.331,753.811,995.991,791.277,1024,833.984C986.413,817.058,945.875,805.613,903.409,800.433C946.778,826.756,980.088,868.499,995.75,918.193C955.151,893.858,910.276,876.089,862.268,866.632C862.268,866.632,862.268,866.632,862.268,866.632" class="icon-Icon-Social-Twitter"/><glyph unicode="&#x0061;" d="M904.878,0C904.878,0,596.695,306.936,596.695,306.936C550.142,353.279,474.419,353.279,427.866,306.936C427.866,306.936,119.958,0.276,119.958,0.276C119.958,0.276,76.229,43.822,76.229,43.822C53.924,66.035,53.924,102.045,76.229,124.258C76.229,124.258,343.754,390.72,343.754,390.72C436.675,483.287,587.899,483.287,680.807,390.72C680.807,390.72,948.621,123.996,948.621,123.996C970.913,101.77,970.913,65.759,948.621,43.559C948.621,43.559,904.878,0,904.878,0C904.878,0,904.878,0,904.878,0M904.878,563.855C904.878,563.855,596.695,870.791,596.695,870.791C550.142,917.133,474.419,917.133,427.866,870.791C427.866,870.791,119.958,564.13,119.958,564.13C119.958,564.13,76.229,607.676,76.229,607.676C53.924,629.889,53.924,665.9,76.229,688.1C76.229,688.1,343.754,954.575,343.754,954.575C436.675,1047.142,587.899,1047.142,680.807,954.575C680.807,954.575,948.621,687.837,948.621,687.837C970.913,665.624,970.913,629.614,948.621,607.414C948.621,607.414,904.878,563.855,904.878,563.855C904.878,563.855,904.878,563.855,904.878,563.855" class="icon-Icon-Symbol-Core"/><glyph unicode="&#x0062;" d="M512.376,853.635C370.696,622.473,259.053,394.725,167.353,149.594C282.382,179.133,399.788,194.532,512.376,194.532C624.964,194.532,742.369,179.133,857.386,149.594C765.711,394.698,654.069,622.46,512.376,853.635M72.396,0.024C56.997,0.024,41.939,6.09,30.701,17.432C14.816,33.462,9.381,57.211,16.719,78.623C128.401,404.032,270.173,695.807,462.869,996.838C473.726,1013.76,492.368,1024,512.376,1024C532.383,1024,551.025,1013.76,561.882,996.838C754.605,695.781,896.363,403.993,1008.019,78.623C1015.371,57.211,1009.923,33.462,994.037,17.419C978.139,1.376,954.574,-4.164,933.254,3.228C795.224,50.831,649.684,75.997,512.376,75.997C375.068,75.997,229.528,50.831,91.485,3.228C85.223,1.061,78.79,0.024,72.396,0.024" class="icon-Icon-Symbol-Mindset"/><glyph unicode="&#x0063;" d="M512.393,891.989C512.393,891.989,227.465,606.293,227.465,606.293C175.546,554.216,175.546,469.492,227.465,417.414C227.465,417.414,426.426,217.929,512.137,132.011C512.137,132.011,797.053,417.694,797.053,417.694C848.972,469.772,848.972,554.508,797.041,606.586C797.041,606.586,598.092,806.071,512.393,891.989M512.137,0C489.536,0,489.536,0,423.061,66.645C423.061,66.645,150.348,340.09,150.348,340.09C55.884,434.81,55.884,588.91,150.348,683.63C150.348,683.63,473.822,1007.982,473.822,1007.982C484.062,1018.234,497.935,1024,512.393,1024C534.982,1024,534.982,1024,601.469,957.355C601.469,957.355,874.182,683.91,874.182,683.91C968.646,589.178,968.646,435.066,874.182,340.358C874.182,340.358,550.695,16.018,550.695,16.018C540.468,5.742,526.595,0,512.137,0" class="icon-Icon-Symbol-Nutrition"/><glyph unicode="&#x0064;" d="M512,905.846C294.833,905.846,118.154,729.167,118.154,512.013C118.154,294.833,294.833,118.167,512,118.167C729.167,118.167,905.846,294.833,905.846,512.013C905.846,729.167,729.167,905.846,512,905.846M512,0C229.678,0,0,229.691,0,512.013C0,794.335,229.678,1024,512,1024C794.322,1024,1024,794.335,1024,512.013C1024,229.691,794.322,0,512,0" class="icon-Icon-Symbol-Oxygen"/><glyph unicode="&#x0065;" d="M44.315,64.669C44.315,64.669,0,109.563,0,109.563C0,109.563,312.212,425.844,312.212,425.844C336.869,450.852,349.561,484.724,347.379,520.362C345.465,551.365,330.873,580.199,309.194,602.161C309.194,602.161,0.269,915.141,0.269,915.141C0.269,915.141,44.584,960.022,44.584,960.022C67.18,982.914,103.801,982.914,126.397,960.022C126.397,960.022,397.42,685.442,397.42,685.442C443.028,639.268,468.13,577.814,468.13,512.48C468.13,447.146,443.028,385.72,397.42,339.519C397.42,339.519,126.141,64.669,126.141,64.669C103.545,41.777,66.91,41.777,44.315,64.669C44.315,64.669,44.315,64.669,44.315,64.669M979.456,64.669C956.861,41.777,920.226,41.777,897.63,64.669C897.63,64.669,626.594,339.249,626.594,339.249C532.453,434.616,532.453,589.806,626.594,685.172C626.594,685.172,897.886,960.022,897.886,960.022C920.495,982.914,957.117,982.914,979.712,960.022C979.712,960.022,1024,915.141,1024,915.141C1024,915.141,711.815,598.847,711.815,598.847C664.67,551.082,664.67,473.353,711.815,425.588C711.815,425.588,1023.744,109.563,1023.744,109.563C1023.744,109.563,979.456,64.669,979.456,64.669C979.456,64.669,979.456,64.669,979.456,64.669" class="icon-Icon-Symbol-Toxins"/><glyph unicode="&#x0066;" d="M512,1024C229.248,1024,0,794.752,0,512C0,229.312,229.248,0,512,0C794.752,0,1024,229.312,1024,512C1024,794.752,794.752,1024,512,1024C512,1024,512,1024,512,1024M618.56,230.528C592.256,220.096,571.264,212.224,555.52,206.72C539.84,201.28,521.6,198.528,500.8,198.528C468.928,198.528,444.096,206.336,426.368,221.952C408.704,237.504,399.936,257.216,399.936,281.152C399.936,290.496,400.576,300.032,401.856,309.76C403.2,319.424,405.312,330.368,408.256,342.656C408.256,342.656,441.216,459.136,441.216,459.136C444.096,470.336,446.656,480.96,448.64,490.816C450.624,500.8,451.584,509.952,451.584,518.272C451.584,533.056,448.512,543.488,442.368,549.312C436.16,555.2,424.512,558.08,407.168,558.08C398.656,558.08,389.888,556.8,380.928,554.176C372.032,551.424,364.352,548.928,358.016,546.496C358.016,546.496,366.72,582.4,366.72,582.4C388.288,591.232,408.96,598.784,428.672,604.992C448.384,611.328,467.072,614.464,484.608,614.464C516.288,614.464,540.736,606.72,557.952,591.488C575.04,576.192,583.68,556.288,583.68,531.84C583.68,526.784,583.104,517.824,581.888,505.088C580.736,492.288,578.56,480.64,575.296,469.952C575.296,469.952,542.528,353.792,542.528,353.792C539.84,344.448,537.472,333.76,535.296,321.856C533.12,309.952,532.096,300.864,532.096,294.72C532.096,279.296,535.552,268.8,542.464,263.168C549.312,257.6,561.344,254.784,578.304,254.784C586.304,254.784,595.328,256.192,605.44,259.008C615.488,261.76,622.784,264.256,627.392,266.368C627.392,266.368,618.56,230.528,618.56,230.528C618.56,230.528,618.56,230.528,618.56,230.528M612.8,702.016C597.504,687.808,579.072,680.704,557.504,680.704C536,680.704,517.44,687.808,502.016,702.016C486.656,716.224,478.912,733.504,478.912,753.728C478.912,773.888,486.72,791.168,502.016,805.568C517.44,819.968,536,827.072,557.504,827.072C579.072,827.072,597.504,819.968,612.8,805.568C628.096,791.168,635.776,773.888,635.776,753.728C635.776,733.44,628.096,716.224,612.8,702.016C612.8,702.016,612.8,702.016,612.8,702.016" class="icon-Icon-Info"/><glyph unicode="&#x0067;" d="M536.209,984.44C536.209,984.44,666.491,676.195,666.491,676.195C666.491,676.195,999.891,647.511,999.891,647.511C1023.019,645.483,1032.48,616.649,1014.909,601.481C1014.909,601.481,762.005,382.367,762.005,382.367C761.93,382.367,837.771,56.326,837.771,56.326C843.028,33.649,818.473,15.852,798.574,27.867C798.574,27.867,512.03,200.724,512.03,200.724C512.03,200.724,225.486,27.867,225.486,27.867C205.512,15.927,181.033,33.724,186.289,56.326C186.289,56.326,262.13,382.367,262.13,382.367C262.13,382.367,9.076,601.556,9.076,601.556C-8.42,616.724,0.891,645.558,24.094,647.586C24.094,647.586,357.57,676.195,357.57,676.195C357.57,676.195,487.776,984.44,487.776,984.44C496.862,1005.916,527.198,1005.916,536.209,984.44C536.209,984.44,536.209,984.44,536.209,984.44" class="icon-Icon-Star"/><glyph unicode="&#x0068;" d="M907.97,158.702C907.97,158.702,907.97,590.679,907.97,590.679C907.97,590.679,817.961,590.679,817.961,590.679C826.846,562.679,831.288,533.56,831.288,503.357C831.288,447.358,817.065,395.69,788.617,348.352C760.169,301.014,721.493,263.569,672.624,236.018C623.756,208.466,570.407,194.69,512.616,194.69C425.071,194.69,350.181,224.818,287.948,285.036C225.714,345.253,194.616,418.052,194.616,503.357C194.616,533.56,199.058,562.679,207.943,590.679C207.943,590.679,113.94,590.679,113.94,590.679C113.94,590.679,113.94,158.702,113.94,158.702C113.94,147.166,117.822,137.497,125.625,129.694C133.427,121.891,143.096,118.009,154.632,118.009C154.632,118.009,867.277,118.009,867.277,118.009C878.365,118.009,887.922,121.891,895.949,129.694C903.975,137.497,907.97,147.166,907.932,158.702C907.932,158.702,907.97,158.702,907.97,158.702M718.655,514.035C718.655,569.138,698.533,616.14,658.326,655.04C618.118,693.941,569.548,713.392,512.653,713.392C456.206,713.392,407.86,693.941,367.653,655.04C327.446,616.14,307.323,569.138,307.323,514.035C307.323,458.931,327.446,411.93,367.653,373.029C407.86,334.128,456.206,314.678,512.653,314.678C569.548,314.678,618.118,334.128,658.326,373.029C698.533,411.93,718.655,458.931,718.655,514.035C718.655,514.035,718.655,514.035,718.655,514.035M907.97,754.01C907.97,754.01,907.97,863.992,907.97,863.992C907.97,876.424,903.527,887.213,894.642,896.322C885.757,905.431,874.856,909.986,861.976,909.986C861.976,909.986,745.983,909.986,745.983,909.986C733.103,909.986,722.202,905.431,713.317,896.322C704.432,887.213,699.989,876.424,699.989,863.992C699.989,863.992,699.989,754.01,699.989,754.01C699.989,741.13,704.432,730.229,713.317,721.343C722.202,712.458,733.103,708.016,745.983,708.016C745.983,708.016,861.976,708.016,861.976,708.016C874.856,708.016,885.757,712.458,894.642,721.343C903.527,730.229,907.97,741.13,907.97,754.01C907.97,754.01,907.97,754.01,907.97,754.01M1024,892.663C1024,892.663,1024,131.337,1024,131.337C1024,95.348,1011.12,64.474,985.323,38.677C959.526,12.88,928.652,0,892.663,0C892.663,0,131.337,0,131.337,0C95.348,0,64.474,12.88,38.677,38.677C12.88,64.474,0,95.348,0,131.337C0,131.337,0,892.663,0,892.663C0,928.652,12.88,959.526,38.677,985.323C64.474,1011.12,95.348,1024,131.337,1024C131.337,1024,892.663,1024,892.663,1024C928.652,1024,959.526,1011.12,985.323,985.323C1011.12,959.526,1024,928.652,1024,892.663C1024,892.663,1024,892.663,1024,892.663" class="icon-Icon-Social-Instagram"/><glyph unicode="&#x0069;" d="M731.424,512.228C731.424,526.34,725.696,536.612,714.272,543.076C714.272,543.076,421.696,725.924,421.696,725.924C409.888,733.54,397.504,733.924,384.544,727.076C371.968,720.228,365.696,709.572,365.696,695.076C365.696,695.076,365.696,329.348,365.696,329.348C365.696,314.852,371.968,304.196,384.544,297.348C390.656,294.308,396.544,292.772,402.272,292.772C409.888,292.772,416.352,294.692,421.696,298.5C421.696,298.5,714.272,481.348,714.272,481.348C725.696,487.844,731.424,498.116,731.424,512.196C731.424,512.196,731.424,512.228,731.424,512.228M1024,512.228C1024,475.652,1023.808,447.076,1023.424,426.5C1023.04,405.924,1021.408,379.908,1018.56,348.484C1015.712,317.06,1011.424,288.964,1005.696,264.196C999.584,236.388,986.464,212.964,966.272,193.924C946.08,174.884,922.464,163.844,895.424,160.772C810.848,151.268,683.04,146.5,512,146.5C340.96,146.5,213.152,151.268,128.576,160.772C101.536,163.812,77.824,174.884,57.44,193.924C37.056,212.964,23.84,236.388,17.728,264.196C12.384,288.964,8.288,317.06,5.44,348.484C2.592,379.908,0.96,405.924,0.576,426.5C0.192,447.076,0,475.652,0,512.228C0,548.804,0.192,577.38,0.576,597.956C0.96,618.532,2.592,644.548,5.44,675.972C8.288,707.396,12.576,735.492,18.304,760.26C24.416,788.068,37.536,811.492,57.728,830.532C77.92,849.572,101.536,860.612,128.576,863.684C213.152,873.188,340.96,877.956,512,877.956C683.04,877.956,810.848,873.188,895.424,863.684C922.464,860.644,946.176,849.572,966.56,830.532C986.944,811.492,1000.16,788.068,1006.272,760.26C1011.616,735.492,1015.712,707.396,1018.56,675.972C1021.408,644.548,1023.04,618.532,1023.424,597.956C1023.808,577.38,1024,548.804,1024,512.228C1024,512.228,1024,512.228,1024,512.228" class="icon-Icon-Social-YouTube"/><glyph unicode="&#x006a;" d="M1024,512.5C1024,419.613,1001.114,333.931,955.343,255.492C909.571,177.053,847.447,114.929,769.008,69.157C690.569,23.386,604.887,0.5,512,0.5C462.682,0.5,414.222,7.593,366.658,21.818C392.904,63.147,410.227,99.622,418.665,131.169C422.659,146.29,434.681,193.181,454.655,271.844C463.54,254.521,479.781,239.513,503.338,226.857C526.896,214.2,552.246,207.854,579.351,207.854C633.149,207.854,681.124,223.086,723.348,253.513C765.573,283.941,798.241,325.829,821.35,379.18C844.46,432.53,856.034,492.526,856.034,559.168C856.034,609.83,842.818,657.394,816.348,701.821C789.878,746.249,751.573,782.463,701.359,810.501C651.144,838.539,594.471,852.539,531.339,852.502C484.671,852.502,441.103,846.043,400.67,833.163C360.237,820.282,325.889,803.146,297.665,781.828C269.44,760.511,245.21,735.945,225.013,708.168C204.815,680.391,189.919,651.607,180.361,621.814C170.804,592.022,166.025,562.229,166.025,532.474C166.025,486.254,174.91,445.597,192.681,410.466C210.452,375.334,236.437,350.694,270.672,336.47C284.001,331.131,292.475,335.574,296.022,349.798C296.918,352.897,298.71,359.803,301.361,370.481C304.012,381.159,305.804,387.841,306.7,390.492C309.35,400.722,306.924,410.279,299.382,419.165C276.72,446.269,265.371,479.833,265.371,519.817C265.371,586.907,288.593,644.588,335.036,692.824C381.48,741.059,442.26,765.177,517.376,765.177C584.466,765.177,636.808,746.958,674.366,710.52C711.924,674.082,730.703,626.742,730.703,568.501C730.703,492.937,715.471,428.722,685.044,375.82C654.616,322.917,615.602,296.485,568.039,296.485C540.934,296.485,519.168,306.154,502.704,325.493C486.239,344.833,481.125,368.054,487.359,395.159C490.906,410.727,496.805,431.485,505.019,457.507C513.232,483.529,519.915,506.415,525.03,526.164C530.144,545.914,532.72,562.714,532.683,576.491C532.683,598.704,526.672,617.148,514.688,631.82C502.704,646.492,485.567,653.81,463.354,653.81C435.801,653.81,412.467,641.153,393.352,615.803C374.237,590.454,364.68,558.906,364.68,521.124C364.68,488.681,370.242,461.539,381.331,439.773C381.331,439.773,315.324,161.111,315.324,161.111C307.745,130.012,304.87,90.662,306.662,43.098C215.082,83.531,141.086,145.991,84.674,230.441C28.262,314.891,0.037,408.898,0,512.463C0,605.35,22.886,691.032,68.657,769.471C114.429,847.91,176.553,910.034,254.992,955.805C333.431,1001.577,419.113,1024.463,512,1024.463C604.887,1024.463,690.569,1001.577,769.008,955.805C847.447,910.034,909.571,847.91,955.343,769.471C1001.114,691.032,1024,605.35,1024,512.463C1024,512.463,1024,512.5,1024,512.5" class="icon-Icon-Social-Pinterest"/></font>
</defs>
</svg>
